Skip to main content

Dawes Live at Pappy And Harriet's Pioneertown Palace on 2009-09-12

by Dawes



01. Bedside Manner
02. Love Is All I Am (* 6 spots of overload on vocals)
03. When My Time Comes
04. That Western Skyline (* 1 spot of overload on vocals)
05. How Far We've Come (Griffin - lead vox)
06. Peace In The Valley


Collection Dawes
Band/Artist Dawes
Venue Pappy And Harriet's Pioneertown Palace
Location Pioneertown CA

Source AKG C522MS ("The Pickle Mic") > Grace Lunatec V3 (mic preamp & A>D converter) + Soundcraft 800B SBD > Edirol R44 > WAVs @48kHz/24bit
Lineage WAVs > Audacity 1.2.6a (delay SBD feed, matrix mid/side, adjust gains as follows: SBD +3dB, Mid channel +3dB, convert sample rate to 44.1kHz/16bit) > xACT 1.64 > FLAC level 8
Taped by morst, with gear provided by Jason "Picklemic" Loomis of Team Pickle - THANKS!
Transferred by morst

Notes

Saturday, September 12, 2009
Outdoor Stage

5th Annual Cracker / Camper Van Beethoven Family Reunion Campout

Notes:
some wind noise and crowd chatter throughout, and a few spots of quite obvious signal distortion on the lead vocals, starting on, and primarily confined to t02, neither of which should drastically interfere with a pleasurable listening session.

DAWES.

FoH: Casey Martin


Dawes at P&H's Dawes at P&H's Dawes at P&H's






SHNTOOL:
length expanded size cdr WAVE problems fmt ratio filename
4:32.41 48077276 B --- -- ---xx Dawes2009-09-12-MTX-t01.flac
5:32.48 58677740 B --- -- ---xx Dawes2009-09-12-MTX-t02.flac
5:11.07 54876908 B --- -- ---xx Dawes2009-09-12-MTX-t03.flac
6:14.60 66114764 B --- -- ---xx Dawes2009-09-12-MTX-t04.flac
3:13.68 34205180 B --- -- ---xx Dawes2009-09-12-MTX-t05.flac
7:03.13 74647820 B --- -- ---xx Dawes2009-09-12-MTX-t06.flac
31:48.12 336599688 B 0.5095 (6 files)

~=~=~=~=~=~=~=~=~=~=~=~=~=~=~=~=~=~=~=~=~=~=~=~=~
Soundscape Preservation Society Founded 1991
http://www.iamtypingwithonefinger.com/SPS.html
~=~=~=~=~=~=~=~=~=~=~=~=~=~=~=~=~=~=~=~=~=~=~=~=~

Reviews

There are no reviews yet. Be the first one to write a review.
PEOPLE ALSO FOUND
Dawes
273
0
0
Source: Mackie SBD tape outs > Sony PCM-M1 > DAT @16/48 Neumann KM140's > Beyer MV100 > M-Audio Microtrack II > WAV @24/48
Dawes
249
1
0
Source: Neumann KM140's (ORTF with windscreens on stand, right side, back of main floor) > Beyer MV100 > M-Audio Microtrack II > WAV @24-bit/48kHz + Soundcraft Spirit 8 SBD > Zoom H2 > WAV @24-bit/48kHz
Dawes
by Dawes
584
1
0
Source: Mackie SBD > Sony PCM-M1 > DAT + Neumann KM140’s > MV100 > -11dB attenuator cable > H2 (mic pads set at -10dB) > WAV @24-bit/48kHz (ORTF on stand, rt of center, 9' high)
Dawes
by Dawes
1,259
1
0
Source: Superlux CM-H8K HYPERs (open) mics > Naiant Biggest Box preamp > Tascam DR-07 recorder > .WAV 16/44.1
Dawes
1,511
1
0
Source: AKG C522MS ("The Pickle Mic") > Grace Lunatec V3 (mic preamp & A>D converter) + Soundcraft 800B SBD > Edirol R44 > WAVs @48kHz/24bit
Dawes
by Dawes
1,567
1
1
( 1 reviews )
Source: [AK40 (ORTF, ~7' high, back of room @ soundboard) >> LC3 >> KM100] + [digital SBD feed] >> R-44 (Oade CM) >> WAV (24bit/48KHz)
Dawes
1,179
1
0
Source: Neumann KM140's (ORTF with windscreens on stand, right side, back of main floor) > Beyer MV100 > M-Audio Microtrack II > WAV @24-bit/48kHz + Soundcraft Spirit 8 SBD > Zoom H2 > WAV @24-bit/48kHz
Dawes
by Dawes
643
1
0
Source: [SBD] + [AK40 (ORTF, ~7' high @ SBD) > LC3 > KM100 > Aerco MP-2] >> R-44 (Oade CM) >> WAV @ 24bit/44.1KHz
Dawes
by Dawes
1,413
1
0
Source: AUD: KM140’s > MV100 > PCM-M10 > WAV @24/48 SBD: Midas XL3 > Tascam US-144 > RCA outputs > M-Audio Microtrack II > WAV @24/48
Dawes
by Dawes
2,538
1
2
( 2 reviews )
Source: AK40 (ORTF, ~6' high @ back of room) >> LC3 >> KM100 >> R-44 (Oade CM) >> WAV @ 24bit/44.1KHz